#TITLE:PARANOiA Hamsterdance;
#SUBTITLE:;
#ARTIST:CYNIC;
#TITLETRANSLIT:;
#SUBTITLETRANSLIT:;
#ARTISTTRANSLIT:;
#CREDIT:;
#BANNER:paranoia_hampsterdance.PNG;
#BACKGROUND:paranoia_hampsterdance-bg.PNG;
#LYRICSPATH:;
#CDTITLE:D2RCR-black.png;
#MUSIC:paranoia_hampsterdance.mp3;
#OFFSET:-0.030;
#SAMPLESTART:9.540;
#SAMPLELENGTH:12.000;
#SELECTABLE:YES;
#BPMS:0.000=190.000;
#STOPS:;
#BGCHANGES:;
// cache tags:
#FIRSTBEAT:16.000;
#LASTBEAT:303.000;
#SONGFILENAME:Songs/Music V.I.P ^_^/Paranoia Hamsterdance/paranoia_hampsterdance.sm;
#HASMUSIC:1;
#HASBANNER:1;
#MUSICLENGTH:99.845;
// end cache tags

//---------------dance-single - HEAVY----------------
#NOTES:
     dance-single:
     HEAVY:
     Hard:
     9:
     0.700,0.683,0.461,0.020,0.010,441.000,46.000,2.000,0.000,0.000:
0000
0000
0000
0000
,
0000
0000
0000
0000
,
0000
0000
0000
0000
,
0000
0000
0000
0000
,
1000
0000
0001
0001
0010
0000
1000
0000
,
0001
0010
0001
0000
0100
0000
0000
0000
,
1000
0100
0010
0001
0100
0010
1000
0100
,
1000
1000
0100
0100
0100
0000
0000
0000
,
1000
0001
0010
0000
0100
0000
1000
0001
,
0010
0001
1000
0100
1000
0000
0100
0000
,
0010
0001
0001
0010
0100
1000
0010
0000
,
0001
0100
1000
0100
0001
0010
0001
0000
,
0010
0000
0010
0000
0100
1000
0010
0000
,
0001
0010
0100
1000
0010
0100
0001
0000
,
0001
0010
0100
0010
0001
0010
0100
0010
,
0001
0100
1000
0100
0001
0100
1000
0000
,
1001
0000
1001
0000
0100
0010
0100
0000
,
0001
0010
0001
0010
0100
1000
0100
0000
,
0010
0000
0001
0001
0001
0010
0100
0000
,
1000
1000
1000
0100
0010
0001
0001
0000
,
1001
0000
1001
0000
0100
0010
0100
0000
,
0001
0010
0001
0000
1001
0000
0000
0000
,
0001
0010
0100
1000
0001
0010
0100
1000
,
0001
0100
1000
0100
0001
0010
0001
0000
,
1001
1001
0110
0110
,
0001
0010
0100
1000
0010
0100
0100
0000
,
0110
0110
1001
1001
,
0100
0010
0001
1000
0100
0010
0001
0000
,
0011
0011
1100
1100
,
1000
0100
1000
0100
0010
0100
0010
0000
,
0001
0010
0001
0100
0010
1000
0100
1000
,
0100
0001
0100
1000
0100
0001
0100
0000
,
1001
1001
0110
0110
,
0001
1000
0001
1000
0001
0100
0001
0000
,
0011
0011
0101
0101
,
0001
0010
0100
1000
0010
0000
0100
0000
,
0001
0000
0010
0000
0100
0000
1000
0000
0010
0000
0000
0100
0000
0000
0001
0000
,
0010
0000
0100
0000
1000
0000
0010
0000
0100
0000
0000
0001
0000
0000
0010
0000
,
0001
0100
1000
0100
0001
0010
0001
0010
,
0100
1000
0100
1000
0100
0000
0000
0000
,
1001
1001
0110
0110
,
1001
1010
1001
0101
,
1001
1001
0110
0110
,
1001
0110
0110
1001
,
0001
0010
0001
0100
0001
0010
0001
0000
,
1000
0100
1000
0010
1000
0100
1000
0000
,
1000
0001
1000
0001
1000
0001
1000
0000
,
0100
0010
0001
0100
0010
1000
0100
0000
,
0001
0001
0001
0000
,
0010
0000
0000
0000
0100
0010
0100
0000
,
0000
0000
0000
0000
1000
0100
1000
0000
,
0001
0010
0001
0010
0000
0100
0100
0000
,
0010
0001
1000
0100
0010
0001
0100
0000
,
0010
0001
0010
0001
0010
0100
1000
0000
,
0000
0010
0100
0001
0010
0100
1000
0010
,
0100
0001
0010
0001
0100
1000
0100
0000
,
0001
0010
0001
0000
1000
0100
1000
0000
,
0001
0010
0001
0100
0010
1000
0100
0000
,
0000
0001
0010
0001
0100
0001
0010
0001
,
0010
0100
1000
0100
1000
0010
1000
0000
,
0001
0001
0010
0100
1000
1000
0010
0100
,
0001
0001
0010
0100
1000
0010
0100
0000
,
0001
0001
1000
0001
0001
0001
1000
0001
,
0001
0001
1000
0001
0001
0010
0010
0000
,
0001
0010
0100
1000
0001
0010
0100
1000
,
0001
0100
1000
0100
0001
0010
0001
0000
,
0001
1000
0100
0000
1000
0100
1000
0000
,
0001
0010
0001
0100
0010
1000
0100
0000
,
0001
0010
0100
1000
0001
0010
0100
0000
,
1000
0100
0010
0001
1000
0100
0010
0000
,
1000
0001
0010
0000
0110
0000
0110
0000
,
0010
0001
1000
0000
1001
0000
1001
0000
,
0100
0010
0100
0000
0010
0100
0010
0000
,
0001
0010
0001
0000
1000
0100
1000
0000
,
1000
0100
0010
0001
1000
0100
0010
0001
,
0100
0010
1000
0000
2002
0000
3003
0000
;

//---------------dance-single - STANDARD----------------
#NOTES:
     dance-single:
     STANDARD:
     Medium:
     7:
     0.554,0.607,0.401,0.020,0.000,345.000,40.000,2.000,0.000,0.000:
0000
0000
0000
0000
,
0000
0000
0000
0000
,
0000
0000
0000
0000
,
0000
0000
0000
0000
,
1000
0100
0010
0010
,
0001
0001
0010
0000
,
1000
0000
0100
0000
1000
0100
0001
0000
,
0100
0010
1001
0000
,
1000
1000
0100
0100
,
0010
0001
0001
0001
,
0010
0100
0001
0001
,
0001
0100
1000
0000
0110
0000
0000
0000
,
1000
0000
1000
0000
0100
0000
0010
0001
,
0010
0001
0010
1000
,
0100
0010
0001
1000
0100
0010
0001
1000
,
0100
0010
0001
0000
0100
0000
0010
0000
,
0000
1001
0000
0000
0001
0000
0010
0000
,
0100
0000
0010
0000
0001
0010
0100
0000
,
1000
0001
0010
0010
,
0100
0000
0100
0000
1000
0100
0001
0000
,
0010
0100
1000
0010
,
0100
0010
1000
0100
0010
0001
0100
0000
,
1000
0100
0001
0000
0001
0100
1000
0000
,
1000
0100
0010
0000
1001
0000
0000
0000
,
1001
0010
1001
0100
,
0010
0100
0010
0100
0010
0100
0010
0000
,
0110
0001
0110
1000
,
0001
1000
0001
1000
0001
1000
0001
0000
,
1001
0010
1001
0100
,
1000
0100
0010
0001
1000
0100
0010
0000
,
1001
1001
1001
1001
,
0001
0010
0100
1000
0010
0100
0001
0000
,
0010
0100
1000
0010
0100
0001
0010
0000
,
0001
0010
0001
0000
1000
0100
1000
0000
,
1001
1001
0110
0110
,
1000
0001
0010
0000
0110
0000
0000
0000
,
1001
0010
1001
0100
,
0010
0100
0010
0100
1000
0001
1000
0000
,
0100
0010
0100
0010
0001
1000
0001
0000
,
1001
0110
1001
0000
,
0001
0001
0010
0010
,
0100
0000
0100
0000
1000
0100
1000
0000
,
1000
1000
0100
0100
,
0001
0000
0001
0000
0010
0100
0010
0000
,
0001
0001
1000
1000
,
0100
0000
0100
0000
0010
0001
0010
0000
,
0001
0001
0010
0010
,
0100
0100
1001
1001
,
0100
0100
0100
0000
,
0010
0000
0000
0000
0001
1000
0001
0000
,
0000
0000
1001
0000
,
0100
0010
0100
0010
0100
0000
0000
0000
,
0001
0000
0001
0000
0001
0100
1000
0000
,
1000
0000
1000
0000
1000
0100
0001
0000
,
0010
0100
1000
0001
0010
0100
1000
0000
,
0010
0100
1001
0000
,
1000
0100
0010
0000
0001
0100
0010
0000
,
1000
0100
0001
0000
0001
0100
1000
0000
,
1000
0100
0010
0001
,
0100
0010
0100
0000
1001
0000
0000
0000
,
1000
1000
0000
0000
0100
0000
0010
0000
,
0001
0010
0001
0010
0001
0000
0010
0000
,
0100
0100
0000
0000
1000
0100
0001
0000
,
0001
0100
1000
0000
1001
0000
0000
0000
,
1000
1000
0000
0000
0001
0000
0010
0000
,
0100
0000
0000
1000
1000
0000
0100
0000
,
0010
0010
0000
0000
0001
0000
0010
0100
,
1000
0000
0010
0100
0001
0000
1001
0000
,
0001
0010
0100
1000
0001
0010
0100
0000
,
1000
0010
0100
0001
0010
0100
1000
0000
,
0001
0010
0001
0010
0001
0010
0001
0000
,
1000
0100
1000
0100
1000
0100
1000
0000
,
1001
0100
1001
0010
,
1001
0100
0010
0100
,
1000
0110
1001
0110
,
1001
0110
2002
3003
;

//---------------dance-single - LIGHT----------------
#NOTES:
     dance-single:
     LIGHT:
     Easy:
     6:
     0.476,0.569,0.270,0.020,0.000,304.000,27.000,2.000,0.000,0.000:
0000
0000
0000
0000
,
0000
0000
0000
0000
,
0000
0000
0000
0000
,
0000
0000
0000
0000
,
1000
0100
0001
0100
,
1000
0010
0001
0000
,
1000
0000
0100
0000
0010
0001
0010
0000
,
0001
0010
1001
0000
,
1000
1000
0100
0100
,
0010
0001
0010
1000
,
0100
0001
0010
1000
,
0100
0010
1001
0000
,
0001
0010
0010
0100
,
1000
0001
0010
0000
,
1000
0000
0001
0000
0010
0100
1000
0000
,
0001
0010
0001
0010
,
0000
1001
0000
0000
0001
0000
0010
0000
,
0100
1000
0010
0000
0100
0000
0000
0000
,
0001
0010
0001
0000
0010
0000
0010
0000
,
0100
0100
1001
0000
,
1000
0100
0010
0001
,
1000
0100
1000
0000
0010
0000
0000
0000
,
0001
0010
0001
0010
0001
0010
0001
0000
,
0010
0100
1001
0000
,
1001
0100
0010
0100
,
0110
1000
0100
0001
,
1001
0100
0010
0100
,
0010
0001
0100
0000
1001
0000
0000
0000
,
1001
0010
0100
0010
,
0110
1000
0001
0010
,
1001
0100
0010
0001
,
0010
0100
1000
0000
0110
0000
0000
0000
,
1001
0100
0010
0100
,
1001
1010
1000
0100
,
1001
0101
0001
0010
,
0100
1000
1001
0000
,
1000
0100
1000
0000
0100
0000
0010
0000
,
0001
0010
0001
0000
0010
0000
0100
0000
,
1000
1000
0100
0100
,
0010
0001
0110
0000
,
1000
1000
0001
0001
,
0010
0010
0100
0100
,
0001
0001
1000
1000
,
0100
0010
0100
0000
1001
0000
0000
0000
,
0100
0100
0010
0010
,
1000
1000
0001
0001
,
0010
0010
0100
0100
,
1000
0100
1000
0000
1001
0000
0000
0000
,
1000
0100
0010
0000
,
0001
0000
0010
0100
,
0000
0000
1001
0000
,
0100
0010
0000
0000
,
0001
0010
0100
1000
,
0010
0010
0100
0100
,
0001
0010
0001
0000
1000
0100
1000
0000
,
0100
0100
0010
0000
1001
0000
0000
0000
,
1000
0100
0010
0001
,
0100
0100
0010
0010
,
1000
0100
1000
0000
0001
0010
0001
0000
,
0010
0010
0100
0000
1001
0000
0000
0000
,
1000
0100
1000
0000
1000
0100
1000
0000
,
0001
0010
0001
0000
0001
0010
0001
0000
,
0001
0000
0001
0000
0001
0100
1000
0000
,
1000
0000
1000
0000
1000
0100
0001
0000
,
0001
0010
0100
1000
,
0010
0100
0001
0000
0010
0000
0000
0000
,
1000
0001
1000
0000
0001
1000
0001
0000
,
0100
0010
0100
0000
1001
0000
0000
0000
,
1000
0100
1000
0100
1000
0100
1000
0000
,
0001
0010
0001
0010
0001
0010
0001
0000
,
0001
0010
0100
1000
0010
0100
0001
0000
,
1000
0100
0010
0001
0100
0010
1000
0000
,
0100
0100
0010
0010
,
0001
0001
0100
0100
,
0010
0010
1000
1000
,
0100
0010
0100
0000
2002
0000
3003
0000
;
